查看: 58|回复: 7
收起左侧

[华语男歌手] 许巍 --《今天》生活作品集2002-2008 正版CD低速原抓WAV+CUE

[复制链接]
  • TA的每日心情
    萌哒
    前天 20:06
  • 252

    主题

    546

    帖子

    1万

    积分

    vip用户组

    积分
    10353
    封面:

    简介:
    专辑名称: 今天生活作品集2002-2008(非卖品)
    专辑艺人: 许巍
    版权提供:北京金牌大风文化传播有限公司
              上海步升大风音乐文化传播有限公司
    出版:国际文化交流音像出版社
    发行:上海步升大风音乐文化传播有限公司
    ISRC:CN-A26-09-304-00/A.J6
    发行时间: 2009年04月01日
    资源类型:WAV/CUE/LOG

    专辑介绍

    精选许巍15首经典作品,
    流畅动听的旋律,略显沙哑的嗓音.
    熟悉的旋律,穿透心灵,
    回望过去的岁月,倾诉未来.
    今天,聆听,感受着;
    明天,遥想,去向往,
    期待更多的美好.
    曲目:
    01. 天鹅之旅   
    02. 完美生活   
    03. 时光   
    04. 蓝莲花   
    05. 礼物   
    06. 漫步   
    07. 纯真   
    08. 旅行   
    09. 曾经的你   
    10. 每一刻都是崭新的   
    11. 悠远的天空   
    12. 爱   
    13. 幸福   
    14. 难忘的一天   
    15. 四季   

    试听:





    网盘链接:
    本站所有数据均来自网友分享,本站不提供下载,不得用于商业用途,不得作为盈利手段,并且拒绝任何转载。请各位发烧友于下载24小时内删除。若有侵权,请联系zhuqingyou@outlook.com进行删除。
    购买主题 已有 6 人购买  本主题需向作者支付 5 榕币 才能浏览
    回复

    使用道具 举报

  • TA的每日心情
    萌哒
    前天 20:06
  • 252

    主题

    546

    帖子

    1万

    积分

    vip用户组

    积分
    10353
     楼主| lxm19781206 发表于 5 天前 | 显示全部楼层
    Exact Audio Copy V1.0 beta 3 from 29. August 2011

    EAC extraction logfile from 27. August 2013, 20:27

    许巍 / 今天生活作品集2002-2008

    Used drive  : PIONEER DVD-RW DVR-K17RS   Adapter: 2  ID: 1

    Read mode               : Secure
    Utilize accurate stream : Yes
    Defeat audio cache      : Yes
    Make use of C2 pointers : No

    Read offset correction                      : 48
    Overread into Lead-In and Lead-Out          : No
    Fill up missing offset samples with silence : Yes
    Delete leading and trailing silent blocks   : No
    Null samples used in CRC calculations       : Yes
    Used interface                              : Native Win32 interface for Win NT & 2000

    Used output format : Internal WAV Routines
    Sample format      : 44.100 Hz; 16 Bit; Stereo


    TOC of the extracted CD

         Track |   Start  |  Length  | Start sector | End sector
        ---------------------------------------------------------
            1  |  0:00.00 |  5:31.62 |         0    |    24886   
            2  |  5:31.62 |  4:58.56 |     24887    |    47292   
            3  | 10:30.43 |  5:07.30 |     47293    |    70347   
            4  | 15:37.73 |  4:32.41 |     70348    |    90788   
            5  | 20:10.39 |  5:25.23 |     90789    |   115186   
            6  | 25:35.62 |  4:15.61 |    115187    |   134372   
            7  | 29:51.48 |  4:28.42 |    134373    |   154514   
            8  | 34:20.15 |  4:28.64 |    154515    |   174678   
            9  | 38:49.04 |  4:23.31 |    174679    |   194434   
           10  | 43:12.35 |  3:53.27 |    194435    |   211936   
           11  | 47:05.62 |  5:33.60 |    211937    |   236971   
           12  | 52:39.47 |  5:09.68 |    236972    |   260214   
           13  | 57:49.40 |  3:50.47 |    260215    |   277511   
           14  | 61:40.12 |  4:23.46 |    277512    |   297282   
           15  | 66:03.58 |  4:56.53 |    297283    |   319535   


    Range status and errors

    Selected range

         Filename E:\试音发烧\许巍 - 今天生活作品集2002-2008\许巍 - 今天生活作品集2002-2008.wav

         Peak level 99.6 %
         Extraction speed 4.4 X
         Range quality 100.0 %
         Copy CRC 10A68C65
         Copy OK

    No errors occurred

    End of status report
    回复 支持 反对

    使用道具 举报

  • TA的每日心情
    大哭
    昨天 13:32
  • 2

    主题

    61

    帖子

    72

    积分

    vip用户组

    积分
    72
    QQ
    yuehong 发表于 5 天前 | 显示全部楼层
    感谢楼主无私分享
    回复 支持 反对

    使用道具 举报

  • TA的每日心情
    难过
    昨天 01:28
  • 0

    主题

    87

    帖子

    370

    积分

    高级会员

    Rank: 4

    积分
    370
    happyev 发表于 4 天前 | 显示全部楼层
    谢谢
    回复

    使用道具 举报

  • TA的每日心情
    开心
    前天 14:24
  • 0

    主题

    63

    帖子

    90

    积分

    新手上路

    Rank: 1

    积分
    90
    QQ
    aoxingzeng 发表于 4 天前 | 显示全部楼层
    回复

    使用道具 举报

    该用户从未签到

    0

    主题

    15

    帖子

    217

    积分

    新手上路

    Rank: 1

    积分
    217
    dig0822 发表于 4 天前 | 显示全部楼层
    太好了
    回复

    使用道具 举报

  • TA的每日心情
    开心
    昨天 00:38
  • 0

    主题

    311

    帖子

    334

    积分

    vip用户组

    积分
    334
    QQ
    phonebook 发表于 4 天前 | 显示全部楼层
    thanks
    回复

    使用道具 举报

  • TA的每日心情
    开心
    2018-10-1 10:44
  • 0

    主题

    128

    帖子

    442

    积分

    高级会员

    Rank: 4

    积分
    442
    ccfjasonrsyy 发表于 4 天前 | 显示全部楼层
    感谢楼主分享
    回复 支持 反对

    使用道具 举报

    您需要登录后才可以回帖 登录 | 立即注册

    本版积分规则

    手机版|小黑屋|加入QQ群|榕树音乐网  

    Copyright © 2001-2013 Comsenz Inc.Template by Comsenz Inc.All Rights Reserved.

    Powered by Discuz!X3.4QQ

    快速回复 返回顶部 返回列表