查看: 476|回复: 14
收起左侧

[华语音乐] 林翠萍-远航的你【罕见资源】原版卡带转录WAV+CUE

[复制链接]
  • TA的每日心情
    可爱
    昨天 20:38
  • 41

    主题

    178

    帖子

    1万

    积分

    vip用户组

    积分
    12655
    QQ
    18820221100 发表于 2018-5-21 12:06:05 | 显示全部楼层 |阅读模式
    封面: IMG20180422122452.jpg IMG20180422122515.jpg IMG20180422122529.jpg


    简介:Exact Audio Copy V1.0 beta 3 from 29. August 2011

    EAC 抓取日志文件从22. 四月 2018, 11:39



    未知艺术家 / 未知标题



    使用驱动器  :TSSTcorpCDDVDW TS-L633F   Adapter: 0  ID: 1



    读取模式      : 可靠Secure

    使用精确流     : 是

    清空音频缓存    : 是

    使用 C2 指示器 : 否



    组合读写偏移校正:             : 0

    读取 Lead-In 和 Lead-Out : 否

    用静音填充抓取中丢失偏移的采样       : 是

    去除首尾静音块               : 否

    在CRC 计算中使用了空样本       : 是

    已用接口                  : Win NT 及 2000 本地 Win32 接口



    所用输出模式: : 内部 WAV 函数

    样本格式    : 44.100 Hz; 16 Bit; 立体声





    已抓取 CD 的 TOC



         音轨 |    起始    |    长度    |  起始扇区  |  结束扇区  

        --------------------------------------------

          1 |  0:00.00 |  3:22.47 |      0 |  15196

          2 |  3:22.47 |  3:27.48 |  15197 |  30769

          3 |  6:50.20 |  3:21.00 |  30770 |  45844

          4 | 10:11.20 |  4:25.35 |  45845 |  65754

          5 | 14:36.55 |  3:41.52 |  65755 |  82381

          6 | 18:18.32 |  4:15.28 |  82382 | 101534

          7 | 22:33.60 |  4:53.67 | 101535 | 123576

          8 | 27:27.52 |  3:12.13 | 123577 | 137989

          9 | 30:39.65 |  3:47.37 | 137990 | 155051

         10 | 34:27.27 |  4:00.53 | 155052 | 173104

         11 | 38:28.05 |  3:21.50 | 173105 | 188229

         12 | 41:49.55 |  3:25.57 | 188230 | 203661





    范围状态及错误



    已选择范围



         文件名 D:\My Documents\新建文件夹 (2)\未知艺术家 - 未知标题.wav



         峰值电平 100.0 %

         抓取速度 3.2 X

         范围质量 99.9 %

         复制 CRC E464A1BE

         复制成功



    没有错误发生



    状态报告结尾




    曲目:

    试听:





    网盘链接:
    本站所有数据均来自网友分享,本站不提供下载,不得用于商业用途,不得作为盈利手段,并且拒绝任何转载。请各位发烧友于下载24小时内删除。若有侵权,请联系zhuqingyou@outlook.com进行删除。
    购买主题 已有 14 人购买  本主题需向作者支付 18 榕币 才能浏览
    回复

    使用道具 举报

  • TA的每日心情
    开心
    昨天 16:29
  • 0

    主题

    49

    帖子

    104

    积分

    新手上路

    Rank: 1

    积分
    104
    QQ
    独狼1029 发表于 2018-5-28 10:08:58 | 显示全部楼层
    谢谢楼主,辛苦了
    回复 支持 反对

    使用道具 举报

  • TA的每日心情
    开心
    2018-10-22 16:31
  • 0

    主题

    172

    帖子

    2347

    积分

    vip用户组

    积分
    2347
    QQ
    adsl2u 发表于 2018-8-31 14:50:37 | 显示全部楼层
    谢谢分享
    回复

    使用道具 举报

    该用户从未签到

    0

    主题

    71

    帖子

    319

    积分

    高级会员

    Rank: 4

    积分
    319
    346995174 发表于 2018-10-14 18:50:33 | 显示全部楼层
    ok
    回复

    使用道具 举报

  • TA的每日心情
    开心
    2019-1-6 17:31
  • 0

    主题

    18

    帖子

    250

    积分

    新手上路

    Rank: 1

    积分
    250
    22560211 发表于 2018-10-19 19:44:23 | 显示全部楼层
    听听卡带转录怎样,谢谢分享
    回复 支持 反对

    使用道具 举报

  • TA的每日心情
    开心
    7 小时前
  • 0

    主题

    87

    帖子

    1344

    积分

    vip用户组

    积分
    1344
    电动工具1992 发表于 2018-11-3 08:47:39 | 显示全部楼层
    很经典的老歌
    回复 支持 反对

    使用道具 举报

  • TA的每日心情
    开心
    2018-11-21 15:08
  • 0

    主题

    56

    帖子

    90

    积分

    新手上路

    Rank: 1

    积分
    90
    QQ
    yom 发表于 2018-11-21 15:25:58 | 显示全部楼层
    666666
    回复

    使用道具 举报

    该用户从未签到

    0

    主题

    26

    帖子

    182

    积分

    新手上路

    Rank: 1

    积分
    182
    xch070 发表于 2018-11-23 15:24:42 | 显示全部楼层
    不错,小贵
    回复

    使用道具 举报

  • TA的每日心情
    开心
    6 天前
  • 0

    主题

    32

    帖子

    182

    积分

    新手上路

    Rank: 1

    积分
    182
    jilin 发表于 2018-12-10 19:03:02 | 显示全部楼层
    辛苦了
    回复

    使用道具 举报

  • TA的每日心情
    难过
    2019-1-4 01:44
  • 0

    主题

    25

    帖子

    146

    积分

    新手上路

    Rank: 1

    积分
    146
    QQ
    一个人的旅途 发表于 2018-12-16 15:13:44 | 显示全部楼层
    谢谢分享
    回复

    使用道具 举报

    您需要登录后才可以回帖 登录 | 立即注册

    本版积分规则

    手机版|小黑屋|加入QQ群|榕树音乐网  

    Copyright © 2001-2013 Comsenz Inc.Template by Comsenz Inc.All Rights Reserved.

    Powered by Discuz!X3.4QQ

    快速回复 返回顶部 返回列表